» » Cuba Gooding - The 1st Cuba Gooding Album

Cuba Gooding - The 1st Cuba Gooding Album mp3


Album MP3: 1714 mb. | Album FLAC: 1745 mb.

Tracklist


1Hold On To What You Got4:20
2All I Can Give You Is Love5:51
3Someone To Go Home To3:41
4As Long As There's You3:23
5Fool Of The Year5:02
6Mind Pleaser4:16
7Where Would I Be Without You3:54
8Ain't Nothin' To It3:46
9We're In Love4:00


Versions


CategoryArtistTitle (Format)LabelCategoryCountryYear
M7-897R1Cuba Gooding The 1st Cuba Gooding Album ‎(LP, Album)MotownM7-897R1US1978
M7-897R1Cuba Gooding The 1st Cuba Gooding Album ‎(LP, Album)MotownM7-897R1US1978
STML 12083, 0C 062-60 578Cuba Gooding The 1st Cuba Gooding Album ‎(LP, Album)Motown, MotownSTML 12083, 0C 062-60 578UK1978
M7-897R1Cuba Gooding The 1st Cuba Gooding Album ‎(LP, Album)MotownM7-897R1US1978
M7-897R1Cuba Gooding The 1st Cuba Gooding Album ‎(LP, Promo)MotownM7-897R1Canada1978


Credits


  • Liner Notes林剛
  • ProducerBrian Potter, Dennis Lambert
  • Written-ByB. Potter (tracks: 1 to 5, 7, 8), D. Lambert (tracks: 1 to 5, 7, 8), J. Whitney (tracks: 9), N. Kurban (tracks: 9), P. Austin (tracks: 9)


Notes


℗ 2002 CELESTE [CMKY-6177] STEREO MADE IN JAPAN


Barcodes


  • Barcode: 4540399061771
  • Matrix / Runout: CMYK 6177 1M1 C 23
  • Rights Society: JASRAC


Companies


  • Manufactured By – Universal Music K.K.
  • Distributed By – Vivid Sound Corporation


Album


Songs in album Cuba Gooding - The 1St Cuba Gooding Album 1978. Cuba Gooding - Mind Pleaser. Cuba Gooding - All I Can Give You Is Love. Cuba Gooding - Where Would I Be Without You. Cuba Gooding - Hold On To What You Got. Cuba Gooding - Fool Of The Year. Cuba Gooding - We're In Love. Cuba Gooding - Ain't Nothin' To It. Cuba Gooding - Someone To Go Home To. Cuba Gooding - As Long As There's You. Listen free to Cuba Gooding The 1st Cuba Gooding Album Mind Pleaser, All I Can Give You Is Love and more. 9 tracks 38:13. born January 2, 1968 is an American actor, writer, producer, and director. After his breakthrough role as Tre Styles in Boyz n the Hood 1991, he appeared in A Few Good Men 1992, The Tuskegee Airmen 1995, Outbreak 1995, and Jerry Maguire 1996, for which he won the Academy Award for Best Supporting Actor, and What Dreams May Come 1998. He gained later attention for his roles in Men of Honor 2000 as Carl Brashear, and in Michael Bay's World War II epic Pearl Harbor. The title suggests a long, fruitful career with Motown, but the association ended after two albums Love Dancer, the second Cuba Gooding album was released in 1979. Dennis Lambert and Brian Potter had some success producing Tavares and others but came up empty this time. Only Mind Pleaser emerged on a 45, backed with the dreadful Where Would I Be Without You it deserved better. Everybody Plays the Fool feat. Cuba Gooding Sr. The Main Ingredient, Cuba Gooding Sr. Лента с персональными рекомендациями и музыкальными новинками, радио, подборки на любой вкус, удобное управление своей коллекцией. April 27, 1944 April 20, 2017 was an American singer. He was the most successful lead singer of the soul group The Main Ingredient, replacing former lead singer Donald McPherson who was diagnosed with leukemia in 1971. According to Billboard, as the lead vocalist he scored five top 10 hits, most notably, Everybody Plays the Fool 1972, peaking at No. 2 for three weeks, and peaking at No. 3 on Billboards all-genre Hot-100 list. Just Don't Want to Be Lonely 1974, Happiness. Discover all of this album's music connections, watch videos, listen to music, discuss and download. Album by Cuba Gooding. We're in Love. is a cover of. We're in Love by Patti Austin 1977. An pleasant discomodern soul song from one of the man from The Main Ingredient soul group. The 1st Cuba Gooding Album where you can find it here : Gooding. The 1st Cuba Gooding Album LP, Promo. M7-897R1. foobar2000 , Dynamic Range Meter log date: 2018-04-28 14:06:59. The 1st Cuba Gooding Album. Format: CD. Condition SleeveDisc: New. I'm Yours Now. Disco Royale. Love Dancer. Read full description. See details and exclusions - Cuba Gooding - 1st Cuba Gooding Album - CD - New. Buy it now


Video


Comments: (1)
Wafi
Full dynamic range!!

foobar2000 1.3.17 / Dynamic Range Meter 1.1.1
log date: 2018-04-28 14:06:59

--------------------------------------------------------------------------------
Analyzed: Cuba Gooding / The 1st Cuba Gooding Album [JP 2002 CD]
--------------------------------------------------------------------------------

DR Peak RMS Duration Track
--------------------------------------------------------------------------------
DR14 -0.38 dB -16.14 dB 4:19 01-Mind Pleaser
DR16 -0.37 dB -19.36 dB 5:51 02-All I Can Give You Is Love
DR13 -0.37 dB -17.32 dB 3:58 03-Where Would I Be Without You
DR13 -0.36 dB -16.29 dB 4:26 04-Hold On To What You Got
DR14 -0.38 dB -16.51 dB 5:04 05-Fool Of The Year
DR16 -0.37 dB -18.91 dB 4:00 06-We're In Love
DR13 -0.38 dB -16.05 dB 3:47 07-Ain't Nothin' To It
DR13 -0.38 dB -16.33 dB 3:43 08-Someone To Go Home To
DR14 -0.37 dB -18.13 dB 3:26 09-As Long As There's You
--------------------------------------------------------------------------------

Number of tracks: 9
Official DR value: DR14

Samplerate: 44100 Hz
Channels: 2
Bits per sample: 16
Bitrate: 811 kbps
Codec: ALAC
================================================================================
Cuba Gooding - The 1st Cuba Gooding Album mp3
Disco
Performer: Cuba Gooding
Title: The 1st Cuba Gooding Album
Category: Funk, Soul
Country: Japan
Released: 03 Oct 2002
Label: Céleste
Catalog #: CMYK-6177
Rating: 4.5/5
Votes: 530
Record Source: CD, Album, Reissue, Stereo